Loading...
Error

Девушка, подающая надежды / Promising Young Woman (Эмиральд Феннел) [2020 г., триллер, комедия, WEB-DLRip] DVO (@MUZOBOZ@) + Original + Sub

Статистика раздачи
Размер:  1,46 GB   |    Зарегистрирован:  2 месяца 12 дней   |    Скачан:  42 раза
Сидов:  1  |  0 KB/s  ]   Личеров:  0  |  0 KB/s  ]

* - сиды/пиры с внешних источников

   
 
Автор Сообщение

makkol Пол:Муж

28-Янв-2021 22:36

Девушка, подающая надежды / Promising Young Woman
«Нет ничего соблазнительнее, чем месть»


Год выпуска: 2020
Жанр: триллер, комедия
Производство: Великобритания , США [FilmNation Entertainment, Focus Features, LuckyChap Entertainment]
Режиссер: Эмиральд Феннел
В ролях: Кэри Маллиган, Бо Бёрнэм, Элисон Бри, Клэнси Браун, Дженнифер Кулидж, Лаверн Кокс, Крис Лоуэлл, Конни Бриттон, Адам Броди, Макс Гринфилд
Сюжет фильма:
Когда-то Кассандра училась в университете и подавала большие надежды, но теперь живёт с родителями и работает в кофейне. Девушка скрывает от близких, что по вечерам посещает бары и другие увеселительные заведения, где, притворяясь сильно пьяной, ведёт охоту на падких до беззащитных женщин мужчин. Вымещая злость на противоположном поле, таким образом Кассандра мстит за события студенческих лет.

  • Мировая премьера: 25 января 2020
  • Российская премьера: 21 января 2021


Качество видео: WEB-DLRip

Продолжительность: 01:53:52
Формат: AVI
Видео: XviD, 720x304 (2.35:1), 23.976 fps, 1435 kbps
Аудио #1: русский, любительский двухголосый закадровый (@MUZOBOZ@), AC3 2.0, 48 kHz, 192 kbps
Аудио #2: английский, оригинал, AC3 2.0, 48 kHz, 192 kbps
Субтитры: русские, английские внешние

Код:

Общее
Полное имя                               : Run_Hide_Fight_2020_WEB-DLRip_MVO_by_Dalemake.avi
Формат                                   : AVI
Формат/Информация                        : Audio Video Interleave
Размер файла                             : 1,46 Гбайт
Продолжительность                        : 1 ч. 53 м.
Общий поток                              : 1833 Кбит/сек
Программа кодирования                    : VirtualDubMod 1.5.10.3 | www.virtualdub-fr.org || (build 2550/release)
Библиотека кодирования                   : VirtualDubMod build 2550/release

Видео
Идентификатор                            : 0
Формат                                   : MPEG-4 Visual
Профиль формата                          : Advanced Simple@L5
Настройки формата                        : BVOP1 / Custom Matrix
Параметр BVOP формата                    : 1
Параметр QPel формата                    : Нет
Параметр GMC формата                     : Без точки перехода
Параметр матрицы формата                 : Выборочная
Идентификатор кодека                     : XVID
Идентификатор кодека/Подсказка           : XviD
Продолжительность                        : 1 ч. 53 м.
Битрейт                                  : 1436 Кбит/сек
Ширина                                   : 720 пикселей
Высота                                   : 304 пикселя
Соотношение сторон                       : 2,35:1
Частота кадров                           : 23,976 (24000/1001) кадра/сек
Частота кадров в оригинале               : 23,976 (23976/1000) кадра/сек
Цветовое пространство                    : YUV
Субдискретизация насыщенности            : 4:2:0
Битовая глубина                          : 8 бит
Тип развёртки                            : Прогрессивная
Метод сжатия                             : С потерями
Бит/(Пиксели*Кадры)                      : 0.274
Размер потока                            : 1,14 Гбайт (78%)
Библиотека кодирования                   : XviD 69

Аудио #1
Идентификатор                            : 1
Формат                                   : AC-3
Формат/Информация                        : Audio Coding 3
Коммерческое название                    : Dolby Digital
Идентификатор кодека                     : 2000
Продолжительность                        : 1 ч. 53 м.
Вид битрейта                             : Постоянный
Битрейт                                  : 192 Кбит/сек
Каналы                                   : 2 канала
ChannelLayout                            : L R
Частота                                  : 48,0 КГц
Частота кадров                           : 31,250 кадров/сек (1536 SPF)
Битовая глубина                          : 16 бит
Метод сжатия                             : С потерями
Размер потока                            : 155 Мбайт (10%)
Выравнивание                             : Разделение по промежуткам
Продолжительность промежутка             : 42  мс. (1,01 видеокадр)
Время предзагрузки промежутка            : 500  мс.
ServiceKind/String                       : Complete Main

Аудио #2
Идентификатор                            : 2
Формат                                   : AC-3
Формат/Информация                        : Audio Coding 3
Коммерческое название                    : Dolby Digital
Идентификатор кодека                     : 2000
Продолжительность                        : 1 ч. 53 м.
Вид битрейта                             : Постоянный
Битрейт                                  : 192 Кбит/сек
Каналы                                   : 2 канала
ChannelLayout                            : L R
Частота                                  : 48,0 КГц
Частота кадров                           : 31,250 кадров/сек (1536 SPF)
Битовая глубина                          : 16 бит
Метод сжатия                             : С потерями
Размер потока                            : 156 Мбайт (10%)
Выравнивание                             : Разделение по промежуткам
Продолжительность промежутка             : 42  мс. (1,00 видеокадр)
Время предзагрузки промежутка            : 500  мс.
ServiceKind/String                       : Complete Main

Этот торрент недоступен для скачивания без регистрации, однако доступен по публичной magnet-ссылке (источники с публичных трекеров). Перед использованием ссылки прочтите, пожалуйста Пользовательское соглашение, а также как можно дольше оставайтесь на раздаче! Для того, чтобы скачать сам торрент-файл (который видит больше источников), а также для того, чтобы поблагодарить релизера, вам необходимо зарегистрироваться. Если регистрироваться лень - вы можете также попробовать скачать релиз по нашим партнерским ссылкам ниже. Кроме того, зарегистрированным пользователям не показывается всплывающая реклама при скачивании.

[underver.se].t196824.torrent
Трекер: Зарегистрирован   [ 28.01.2021 22:36 ]  

Статус: проверено (by makkol at 28.01.2021 22:36)
Поблагодарили: 1 человек
Тип торрента: публичный - доступные источники с открытых трекеров: 
Размер: 1,46 GB (занимает 1/3 DVDR, для записи нужно 1 болванка DVDR/RW)
 
 
Похожие темы
Форум Тема Автор Торрент Отв. Посл. сооб.
Зарубежное кино [DVDRip, Low-Res HDRip, и т.д.] Девушка, подающая надежды / Promising Young Woman (Эмиральд Феннел / Emerald Fennell) [2020 г., триллер, драма, криминал, WEB-DLRip-AVC] Dub (iTunes) + Original (Eng) + Sub (Rus, Eng) 90ytr90
30 | 0

0 | 470

16

19.02.2021 08:59

Зарубежное кино [DVDRip, Low-Res HDRip, и т.д.] Девушка, подающая надежды / Promising Young Woman (Эмиральд Феннел) [2020 г., триллер, драма, криминал, WEB-DLRip] Dub (iTunes) + Sub (Rus) eXtatik
17 | 2

0 | 412

9

20.02.2021 11:09

Зарубежное кино [DVDRip, Low-Res HDRip, и т.д.] Девушка, подающая надежды / Promising Young Woman (Эмиральд Феннел / Emerald Fennell) [2020 г., триллер, драма, криминал, BDRip] Dub (iTunes) + Sub (Rus) 90ytr90
35 | 0

0 | 114

6

14.03.2021 15:28

Зарубежное кино [DVDRip, Low-Res HDRip, и т.д.] Девушка, подающая надежды / Promising Young Woman (Эмиральд Феннел / Emerald Fennell) [2020 г., триллер, драма, криминал, BDRip] Dub (iTunes) + Original (Eng) + Sub (Rus, Eng) 90ytr90
61 | 2

0 | 129

10

14.03.2021 15:29

Зарубежное кино [HDDVDRip / BDRip / WEB-DL / HDTV 1080/720р] Девушка, подающая надежды / Promising Young Woman (Эмиральд Феннел / Emerald Fennell) [2020 г., триллер, драма, криминал, WEB-DL 1080p] MVO (@MUZOBOZ@) + Original (Eng) 90ytr90
93 | 0

0 | 871

66

17.01.2021 21:39

Зарубежное кино [HDDVDRip / BDRip / WEB-DL / HDTV 1080/720р] Девушка, подающая надежды / Promising Young Woman (Эмиральд Феннел / Emerald Fennell) [2020 г., триллер, драма, криминал, BDRip 1080p] Dub (iTunes) + Original (Eng) + Sub (Rus, Eng) 90ytr90
98 | 4

0 | 235

6

24.03.2021 10:09

Зарубежное кино [HDDVDRip / BDRip / WEB-DL / HDTV 1080/720р] Девушка, подающая надежды / Promising Young Woman (Эмиральд Феннел / Emerald Fennell) [2020 г., триллер, драма, криминал, BDRip 720p] Dub (iTunes) + Original (Eng) + Sub (Rus, Eng) 90ytr90
284 | 7

0 | 261

5

24.03.2021 10:09


Яндекс.Метрика powered by Sphinx


В Н И М А Н И Е
Сайт не распространяет и не хранит электронные версии произведений, а лишь бесплатно и без коммерческой выгоды (не требуя взамен платы,
SMS и т.д.) предоставляет доступ к создаваемому пользователями каталогу ссылок на торрент-файлы, которые содержат только списки хеш-сумм.
Убедительная просьба с жалобами обращаться напрямую к пользователю, разместившему торрент файл.

Вверх