Loading...
Error

Оборотни из глубинки / A Werewolf in England (Чарли Стидс) [2020 г., ужасы, комедия, WEB-DLRip-AVC] VO (itunes)

Статистика раздачи
Размер:  1,32 GB   |    Зарегистрирован:  7 дней   |    Скачан:  8 раз

Полного источника не было: 16 часов

Сидов:  0  |  0 KB/s  ]   Личеров:  0  |  0 KB/s  ]

* - сиды/пиры с внешних источников

   
 
Автор Сообщение

Renesans Пол:Муж

15-Сен-2021 04:50

Оборотни из глубинки / A Werewolf in England


Год выпуска: 2020
Жанр: Ужасы, комедия
Режиссер: Чарли Стидс
Актеры: Рис Коннолли, Тим Картрайт, Натали Мартинс, Марк МакКирди, Жессика Алонсо, Эмма Спаргин Хасси, Бэрри Де Ла Рош, Рори Вилтон, Дерек Нельсон, Джеймс Суонтон

Описание:
В сельской местности викторианской Англии всё было довольно спокойно — если, конечно, не считать того, что раз в год там люди обращаются в страшных чудовищ и начинают жаждать мяса. Полицейский везет на суд обвиняемого в убийстве, и им нужно где-то переночевать. И так уж им повезло оказаться именно в том трактире, где хозяева как раз заготавливали человечину для оборотней в ночь Кровавой Луны.



Выпущено: Великобритания/ Dark Temple Motion Pictures
Продолжительность: 01:25:27
Перевод: Профессиональный (одноголосый) | iTunes?
Субтитры: Нет

Формат: Matroska
Качество: WEB-DLRip-AVC
Видео: 1024x432 at 24.000 fps, x264@L4.1, ~1443 kbps
Аудио 1: AC3, 6 ch, ~384 kbps - | Русский | -
Аудио 2: AC3, 6 ch, ~384 kbps - | Английский | -

***Релиз от: -=DoMiNo=-
x264 [info]: frame I:1332 Avg QP:14.84 size: 45894
x264 [info]: frame P:29911 Avg QP:17.10 size: 16345
x264 [info]: frame B:91812 Avg QP:19.06 size: 4080
x264 [info]: consecutive B-frames: 2.6% 3.0% 7.5% 48.8% 13.1% 19.6% 3.0% 1.0% 0.2% 0.1% 0.7% 0.2% 0.1%

General
Unique ID : 100902583102185540082243212667701579732 (0x4BE92170B8D89D5027650B80B7C24FD4)
Complete name : I:A.Werewolf.in.England.(2020).WEB-DLRip-AVC.mkv
Format : Matroska
Format version : Version 4
File size : 1.32 GiB
Duration : 1 h 25 min
Overall bit rate : 2 213 kb/s
Encoded date : UTC 2021-09-14 20:11:49
Writing application : mkvmerge v61.0.0 ('So') 64-bit
Writing library : libebml v1.4.2 + libmatroska v1.6.4
Cover : Yes
Attachments : Cover.png / Cover 2.jpg

Video
ID : 1
Format : AVC
Format/Info : Advanced Video Codec
Format profile : High@L4.1
Format settings : CABAC / 12 Ref Frames
Format settings, CABAC : Yes
Format settings, Reference : 12 frames
Codec ID : V_MPEG4/ISO/AVC
Duration : 1 h 25 min
Bit rate : 1 443 kb/s
Width : 1 024 pixels
Height : 432 pixels
Display aspect ratio : 2.40:1
Frame rate mode : Constant
Frame rate : 24.000 FPS
Color space : YUV
Chroma subsampling : 4:2:0
Bit depth : 8 bits
Scan type : Progressive
Bits/(Pixel*Frame) : 0.136
Stream size : 882 MiB (65%)
Title : -=DoMiNo=-
Writing library : x264 core 164 r3065+55M 280faca t_mod_New [(8 & 10)-bit@all X86_64]
Encoding settings : cabac=1 / ref=12 / deblock=1:-3:-2 / analyse=0x3:0x133 / me=umh / subme=10 / psy=1 / fade_compensate=0.00 / psy_rd=1.00:0.15 / mixed_ref=1 / me_range=32 / chroma_me=1 / trellis=2 / 8x8dct=1 / cqm=0 / deadzone=21,11 / fast_pskip=0 / chroma_qp_offset=-3 / threads=24 / lookahead_threads=3 / sliced_threads=0 / nr=0 / decimate=0 / interlaced=0 / bluray_compat=0 / constrained_intra=0 / fgo=0 / bframes=12 / b_pyramid=2 / b_adapt=2 / b_bias=0 / direct=3 / weightb=1 / open_gop=0 / weightp=2 / keyint=240 / keyint_min=24 / scenecut=40 / intra_refresh=0 / rc_lookahead=60 / rc=2pass / mbtree=0 / bitrate=1443 / ratetol=1.0 / qcomp=0.65 / qpmin=0:0:0 / qpmax=69:69:69 / qpstep=4 / cplxblur=20.0 / qblur=0.5 / vbv_maxrate=50000 / vbv_bufsize=62500 / nal_hrd=none / filler=0 / ip_ratio=1.24 / pb_ratio=1.30 / aq=1:0.90 / aq-sensitivity=10.00 / aq-factor=1.00:1.00:1.00 / aq2=0 / aq3=0
Language : English
Default : Yes
Forced : No

Audio #1
ID : 2
Format : AC-3
Format/Info : Audio Coding 3
Commercial name : Dolby Digital
Codec ID : A_AC3
Duration : 1 h 25 min
Bit rate mode : Constant
Bit rate : 384 kb/s
Channel(s) : 6 channels
Channel layout : L R C LFE Ls Rs
Sampling rate : 48.0 kHz
Frame rate : 31.250 FPS (1536 SPF)
Compression mode : Lossy
Stream size : 235 MiB (17%)
Title : MVO (iTunes)
Language : Russian
Service kind : Complete Main
Default : Yes
Forced : Yes

Audio #2
ID : 3
Format : AC-3
Format/Info : Audio Coding 3
Commercial name : Dolby Digital
Codec ID : A_AC3
Duration : 1 h 25 min
Bit rate mode : Constant
Bit rate : 384 kb/s
Channel(s) : 6 channels
Channel layout : L R C LFE Ls Rs
Sampling rate : 48.0 kHz
Frame rate : 31.250 FPS (1536 SPF)
Compression mode : Lossy
Stream size : 235 MiB (17%)
Title : Original
Language : English
Service kind : Complete Main
Default : No
Forced : No

Menu
00:00:00.000 : Chapter 1
00:20:47.000 : Chapter 2
00:39:28.791 : Chapter 3
01:01:45.416 : Chapter 4
01:23:19.248 : Chapter 5

Этот торрент недоступен для скачивания без регистрации, однако доступен по публичной magnet-ссылке (источники с публичных трекеров). Перед использованием ссылки прочтите, пожалуйста Пользовательское соглашение, а также как можно дольше оставайтесь на раздаче! Для того, чтобы скачать сам торрент-файл (который видит больше источников), а также для того, чтобы поблагодарить релизера, вам необходимо зарегистрироваться. Если регистрироваться лень - вы можете также попробовать скачать релиз по нашим партнерским ссылкам ниже. Кроме того, зарегистрированным пользователям не показывается всплывающая реклама при скачивании.

[underver.se].t221330.torrent
Трекер: Зарегистрирован   [ 15.09.2021 04:50 ]  

Статус: проверено (by Robbertta at 15.09.2021 08:53)
Поблагодарили: пока никто не поблагодарил...
Тип торрента: публичный - доступные источники с открытых трекеров: 
Размер: 1,32 GB (занимает 0,3 DVDR, для записи нужно 1 болванка DVDR/RW)
 
 

Яндекс.Метрика powered by Sphinx


В Н И М А Н И Е
Сайт не распространяет и не хранит электронные версии произведений, а лишь бесплатно и без коммерческой выгоды (не требуя взамен платы,
SMS и т.д.) предоставляет доступ к создаваемому пользователями каталогу ссылок на торрент-файлы, которые содержат только списки хеш-сумм.
Убедительная просьба с жалобами обращаться напрямую к пользователю, разместившему торрент файл.

Вверх