Loading...
Error

Ночные тетради / Nightbooks (Дэвид Яровески) [2021 г., фэнтези, семейный, приключения, WEB-DL-HEVC 1080p] Dub (Netflix) + Original + Sub

Статистика раздачи
Размер:  4,48 GB   |    Зарегистрирован:  6 дней   |    Скачан:  8 раз

Полного источника не было: 4 часа

Сидов:  0  |  0 KB/s  ]   Личеров:  1  |  780 KB/s  ]

* - сиды/пиры с внешних источников

   
 
Автор Сообщение

FiNikola Пол:Муж

15-Сен-2021 08:10

Ночные тетради / Nightbooks
Название: Ночные тетради
Оригинальное название: Nightbooks
Год выпуска: 2021
Жанр: Фэнтези, семейный, приключения

Режиссёр: Дэвид Яровески

Актеры: Кристен Риттер, Уинслоу Фегли, Лидия Джюэтт, Джесс Браун, Хийла Айнне, Майли Хейк, Люкстон Хэндспайкер, Лиам Кувион, Тейлор Белль Путермэн

Описание: каждую ночь он будет рассказывать ведьме одну страшную историю. Большой любитель страшилок, Алекс знает массу ужасных сказок, которые он записывает в свои специальные ночные тетради. Встретив в логове ведьмы другую пленницу, Ясмин, Алекс объединяется с ней, чтобы вместе найти выход из волшебного дома-лабиринта.

Страна: США
Студия: Catchlight Studios, Ghost House Pictures, MXN Entertainment, Netflix
Продолжительность: 01:43:11
Перевод: Дублированный | Netflix

Качество: WEB-DL-HEVC 1080p
Видео: 1920x1080 at 23.976 fps, MPEG-H HEVC HDR Video, ~ 4262 kbps avg
Звук #01: 48 kHz, E-AC3, 5.1, 640 Kbps | Дублированный | Netflix | RUS |
Звук #02: 48 kHz, AC3, 5.1, 640 Kbps | Дублированный | Netflix | RUS |
Звук #03: 48 kHz, E-AC3+Atmos, 5.1, 768 Kbps | Оригинал | ENG |
Субтитры: Русские (Forced, full), украинские (Full), английские
General
Unique ID : 231611689375245996985945035229327188258 (0xAE3EC9EF0B918E344E279C051B8AE122)
Complete name : E:VideoNightbooks.2021.WEB-DL.1080p.HDR.seleZen.mkv
Format : Matroska
Format version : Version 4
File size : 4.48 GiB
Duration : 1 h 43 min
Overall bit rate : 6 209 kb/s
Movie name : Nightbooks 2021 from seleZen
Encoded date : UTC 2021-09-15 07:31:17
Writing application : mkvmerge v59.0.0 ('Shining Star') 64-bit
Writing library : libebml v1.4.2 + libmatroska v1.6.4

Video
ID : 1
Format : HEVC
Format/Info : High Efficiency Video Coding
Format profile : Main 10@L4@Main
HDR format : SMPTE ST 2086, HDR10 compatible
Codec ID : V_MPEGH/ISO/HEVC
Duration : 1 h 40 min
Bit rate : 4 262 kb/s
Width : 1 920 pixels
Height : 1 080 pixels
Display aspect ratio : 16:9
Frame rate mode : Constant
Frame rate : 23.976 (24000/1001) FPS
Color space : YUV
Chroma subsampling : 4:2:0 (Type 2)
Bit depth : 10 bits
Bits/(Pixel*Frame) : 0.086
Stream size : 3.00 GiB (67%)
Default : Yes
Forced : No
Color range : Limited
Color primaries : BT.2020
Transfer characteristics : PQ
Matrix coefficients : BT.2020 non-constant
Mastering display color pri : Display P3
Mastering display luminance : min: 0.0050 cd/m2, max: 4000 cd/m2
Maximum Content Light Level : 10000 cd/m2
Maximum Frame-Average Light : 2980 cd/m2

Audio #1
ID : 2
Format : E-AC-3
Format/Info : Enhanced AC-3
Commercial name : Dolby Digital Plus
Codec ID : A_EAC3
Duration : 1 h 43 min
Bit rate mode : Constant
Bit rate : 640 kb/s
Channel(s) : 6 channels
Channel layout : L R C LFE Ls Rs
Sampling rate : 48.0 kHz
Frame rate : 31.250 FPS (1536 SPF)
Compression mode : Lossy
Stream size : 472 MiB (10%)
Title : Netflix
Language : Russian
Service kind : Complete Main
Default : Yes
Forced : No

Audio #2
ID : 3
Format : AC-3
Format/Info : Audio Coding 3
Commercial name : Dolby Digital
Codec ID : A_AC3
Duration : 1 h 43 min
Bit rate mode : Constant
Bit rate : 640 kb/s
Channel(s) : 6 channels
Channel layout : L R C LFE Ls Rs
Sampling rate : 48.0 kHz
Frame rate : 31.250 FPS (1536 SPF)
Compression mode : Lossy
Stream size : 472 MiB (10%)
Title : Netflix
Language : Russian
Service kind : Complete Main
Default : No
Forced : No

Audio #3
ID : 4
Format : E-AC-3 JOC
Format/Info : Enhanced AC-3 with Joint Object Coding
Commercial name : Dolby Digital Plus with Dolby Atmos
Codec ID : A_EAC3
Duration : 1 h 43 min
Bit rate mode : Constant
Bit rate : 768 kb/s
Channel(s) : 6 channels
Channel layout : L R C LFE Ls Rs
Sampling rate : 48.0 kHz
Frame rate : 31.250 FPS (1536 SPF)
Compression mode : Lossy
Stream size : 567 MiB (12%)
Title : Original
Language : English
Service kind : Complete Main
Default : No
Forced : No
Complexity index : 16
Number of dynamic objects : 15
Bed channel count : 1 channel
Bed channel configuration : LFE

Text #1
ID : 5
Format : UTF-8
Codec ID : S_TEXT/UTF8
Codec ID/Info : UTF-8 Plain Text
Duration : 1 h 40 min
Bit rate : 1 b/s
Count of elements : 30
Stream size : 971 Bytes (0%)
Title : Forced
Language : Russian
Default : Yes
Forced : No

Text #2
ID : 6
Format : UTF-8
Codec ID : S_TEXT/UTF8
Codec ID/Info : UTF-8 Plain Text
Duration : 1 h 40 min
Bit rate : 56 b/s
Count of elements : 1064
Stream size : 41.8 KiB (0%)
Title : Full
Language : Russian
Default : No
Forced : No

Text #3
ID : 7
Format : UTF-8
Codec ID : S_TEXT/UTF8
Codec ID/Info : UTF-8 Plain Text
Duration : 1 h 40 min
Bit rate : 59 b/s
Count of elements : 986
Stream size : 43.3 KiB (0%)
Title : Full
Language : Ukrainian
Default : No
Forced : No

Text #4
ID : 8
Format : UTF-8
Codec ID : S_TEXT/UTF8
Codec ID/Info : UTF-8 Plain Text
Duration : 1 h 35 min
Bit rate : 59 b/s
Count of elements : 1514
Stream size : 41.5 KiB (0%)
Language : English
Default : No
Forced : No

Этот торрент недоступен для скачивания без регистрации, однако доступен по публичной magnet-ссылке (источники с публичных трекеров). Перед использованием ссылки прочтите, пожалуйста Пользовательское соглашение, а также как можно дольше оставайтесь на раздаче! Для того, чтобы скачать сам торрент-файл (который видит больше источников), а также для того, чтобы поблагодарить релизера, вам необходимо зарегистрироваться. Если регистрироваться лень - вы можете также попробовать скачать релиз по нашим партнерским ссылкам ниже. Кроме того, зарегистрированным пользователям не показывается всплывающая реклама при скачивании.

[underver.se].t221338.torrent
Трекер: Зарегистрирован   [ 15.09.2021 08:10 ]  

Статус: проверено (by FiNikola at 15.09.2021 08:11)
Поблагодарили: пока никто не поблагодарил...
Тип торрента: публичный - доступные источники с открытых трекеров: 
Размер: 4,48 GB (занимает 1,02 DVDR, для записи нужно 2 болванки DVDR/RW)
 
 
Похожие темы
Форум Тема Автор Торрент Отв. Посл. сооб.
Зарубежное кино [DVDRip, Low-Res HDRip, и т.д.] Ночные тетради / Nightbooks (Дэвид Яровески) [2021 г., фэнтези, семейный, приключения, WEB-DLRip] Dub (Netflix) + Sub FiNikola
27 | 0

0 | 214

12

15.09.2021 11:48

Зарубежное кино [HDDVDRip / BDRip / WEB-DL / HDTV 1080/720р] Ночные тетради / Nightbooks (Дэвид Яровески) [2021 г., фэнтези, семейный, приключения, WEB-DL 1080p] Dub (Netflix) + Original + Sub FiNikola
33 | 9

0 | 148

7

15.09.2021 08:06

Зарубежное кино [HDDVDRip / BDRip / WEB-DL / HDTV 1080/720р] Ночные тетради / Nightbooks (Дэвид Яровески) [2021 г., фэнтези, семейный, приключения, WEB-DL 720p] Dub (Netflix) + Original + Sub FiNikola
126 | 1

0 | 233

7

15.09.2021 11:52

Зарубежное кино AVC Ночные тетради / Nightbooks (Дэвид Яровески) [2021 г., фэнтези, семейный, приключения, WEB-DLRip-AVC] Dub (Netflix) + Original + Sub FiNikola
106 | 5

0 | 87

5

15.09.2021 11:58


Яндекс.Метрика powered by Sphinx


В Н И М А Н И Е
Сайт не распространяет и не хранит электронные версии произведений, а лишь бесплатно и без коммерческой выгоды (не требуя взамен платы,
SMS и т.д.) предоставляет доступ к создаваемому пользователями каталогу ссылок на торрент-файлы, которые содержат только списки хеш-сумм.
Убедительная просьба с жалобами обращаться напрямую к пользователю, разместившему торрент файл.

Вверх